Hello
  Home Help Search Login Register DMCA Rules  
30 July 2014, 17:07:40
 


Rapidshare Search
Skoci na stranu: 1    Idi na dno strane
Send this topic    Print
Author Topic: Kako je Gru ukrao mjesec (2010) (sinkronizirano,HR)  (Read 5783 times)
0 Members and 1 Guest are viewing this topic.

Postovani/a
Hvala vam sto ste postali deo nase zajednice...
mozete skidati sve sto zelite bez registracije na nas forum..
« on: 22 December 2010, 11:29:48 »

Kako je Gru ukrao mjesec (2010) DVDRip Xvid hr (Despicable Me)




Code:
http://www.imdb.com/title/tt1323594/

IZVORNO IME:Despicable Me
REDATELJ: Pierre Coffin i Chris Renaud
ULOGE: Rene Bitorajac, Mirela Brekalo, Ivica Zadro, Mario Petreković
ŽANR: animirani, SINKRONIZIRAN NA HRVATSKI
TRAJANJE FILMA: 95 minuta
GODINA: 2010
DRŽAVA: SAD

screenshot



download

Code:
http://www.filesonic.com/file/44785703/Kako_Je_Gru_Ukrao_Mjesec_Hr.part1.rar
http://www.filesonic.com/file/44785705/Kako_Je_Gru_Ukrao_Mjesec_Hr.part2.rar
http://www.filesonic.com/file/44785707/Kako_Je_Gru_Ukrao_Mjesec_Hr.part3.rar
  • *
  • zahvalnica: 2

  • Date Registerd:08 October 2010, 13:50:55
  • Posts: 1
  • Topics: 1
  • Activity/Aktivnost
    0%
  • OS:
    Windows 7 Windows 7
  • Browser:
    Firefox 3.6.13 Firefox 3.6.13
  • Email
Logged
::postovani, gosti i clanovi... Make RapidBelgrade more strong by donating us. Even donation can make RapidBelgrade better and bigger... You can make donation via PayPal or Payza... ::
Rapidshare Search

« Reply #1 on: 22 December 2010, 16:35:30 »

može rapid fajlovi?  nod
  • *
  • zahvalnica: 2

  • Date Registerd:18 June 2010, 17:50:44
  • Posts: 11
  • Topics: 3
  • Activity/Aktivnost
    0%
  • OS:
    Windows 7 Windows 7
  • Browser:
    Firefox 3.6.13 Firefox 3.6.13
Logged
« Reply #2 on: 22 December 2010, 20:02:31 »

 afro1 afro1
  • *
  • zahvalnica: 2

  • Date Registerd:18 June 2010, 17:50:44
  • Posts: 11
  • Topics: 3
  • Activity/Aktivnost
    0%
  • OS:
    Windows 7 Windows 7
  • Browser:
    Firefox 3.6.13 Firefox 3.6.13
Logged
« Reply #3 on: 22 December 2010, 22:54:54 »

Hvala najljepsa moj sin ga je dugo ocekivao!!!
  • *
  • zahvalnica: 0

  • Date Registerd:16 December 2010, 00:09:12
  • Posts: 2
  • Topics: 0
  • Activity/Aktivnost
    0%
  • OS:
    Windows XP Windows XP
  • Browser:
    Firefox 3.6.13 Firefox 3.6.13
  • Email
Logged
« Reply #4 on: 01 January 2011, 13:12:57 »

Svaka ti dala...
  • *
  • zahvalnica: 0

  • Date Registerd:01 January 2011, 12:57:34
  • Posts: 1
  • Topics: 0
  • Activity/Aktivnost
    0%
  • OS:
    Windows 7 Windows 7
  • Browser:
    Firefox 3.6.13 Firefox 3.6.13
  • Email
Logged
« Reply #5 on: 01 January 2011, 17:16:04 »

Hvala velika.  yess
  • *
  • zahvalnica: 0

  • Date Registerd:01 January 2011, 17:05:53
  • Posts: 1
  • Topics: 0
  • Activity/Aktivnost
    0%
  • OS:
    Windows XP Windows XP
  • Browser:
    Chrome 8.0.552.224 Chrome 8.0.552.224
Logged
« Reply #6 on: 05 January 2011, 09:29:10 »

moze password, navedeni mi ne radi.
  • *
  • zahvalnica: 0

  • pol: Male
  • Date Registerd:08 August 2009, 10:38:10
  • Posts: 4
  • Topics: 1
  • Activity/Aktivnost
    0%
  • OS:
    Windows 7 Windows 7
  • Browser:
    Firefox 3.6.13 Firefox 3.6.13
Logged
« Reply #7 on: 06 January 2011, 00:15:34 »

dadada
  • *
  • zahvalnica: 1

  • Date Registerd:06 January 2011, 00:07:53
  • Posts: 1
  • Topics: 0
  • Activity/Aktivnost
    0%
  • OS:
    Windows 7 Windows 7
  • Browser:
    Firefox 3.6.13 Firefox 3.6.13
  • Email
Logged
« Reply #8 on: 14 January 2011, 15:22:27 »

 cvece.gif
  • *
  • zahvalnica: 0

  • Date Registerd:13 March 2010, 11:00:56
  • Posts: 2
  • Topics: 0
  • Activity/Aktivnost
    0%
  • OS:
    Windows XP Windows XP
  • Browser:
    Firefox 3.6 Firefox 3.6
Logged
« Reply #9 on: 30 April 2011, 08:00:46 »

moze RAPID linkovi?
thx in advance
  • *
  • zahvalnica: 0

  • Date Registerd:16 December 2009, 17:15:19
  • Posts: 27
  • Topics: 5
  • Activity/Aktivnost
    0%
  • OS:
    Windows XP Windows XP
  • Browser:
    Microsoft Internet Explorer 8.0 Microsoft Internet Explorer 8.0
  • Email
Logged
« Reply #10 on: 01 May 2011, 19:17:32 »



Quote
RIP info:
General
Complete name : Kako.Je.Gru.Ukrao.Mjesec.DVDrip.avi
Format : AVI
Format/Info : Audio Video Interleave
File size : 700 MiB
Duration : 1h 30mn
Overall bit rate : 1 077 Kbps
Writing application : FairUse Wizard -


Writing library : The best and REALLY easy backup tool

Video
ID : 0
Format : MPEG-4 Visual
Format profile : Advanced Simple@L5
Format settings, BVOP : Yes
Format settings, QPel : No
Format settings, GMC : No warppoints
Format settings, Matrix : Default (H.263)
Muxing mode : Packed bitstream
Codec ID : XVID
Codec ID/Hint : XviD
Duration : 1h 30mn
Bit rate : 939 Kbps
Width : 656 pixels
Height : 384 pixels
Display aspect ratio : 16:9
Frame rate : 25.000 fps
Color space : YUV
Chroma subsampling : 4:2:0
Bit depth : 8 bits
Scan type : Progressive
Compression mode : Lossy
Bits/(Pixel*Frame) : 0.149
Stream size : 610 MiB (87%)
Writing library : XviD 1.2.0.dev47 (UTC 2006-11-01)

Audio
ID : 1
Format : MPEG Audio
Format version : Version 1
Format profile : Layer 3
Mode : Joint stereo
Codec ID : 55
Codec ID/Hint : MP3
Duration : 1h 30mn
Bit rate mode : Constant
Bit rate : 128 Kbps
Channel(s) : 2 channels
Sampling rate : 48.0 KHz
Compression mode : Lossy
Stream size : 83.1 MiB (12%)
Alignment : Aligned on interleaves
Interleave, duration : 40 ms (1.00 video frame)
Interleave, preload duration : 504 ms
Writing library : LAME3.97
Encoding settings : -m j -V 4 -q 2 -lowpass 17 -b 128

 screen


 download
Code:
http://www.rapidshare.com/files/437883419/Despicable.Me.2010.DVDRip.HRSink.part1.rar
http://www.rapidshare.com/files/437883432/Despicable.Me.2010.DVDRip.HRSink.part2.rar
  • *
  • New vw scirocco=pusti snovi
  • zahvalnica: 1065

  • pol: Male
  • Location: Banja Luka
  • Date Registerd:10 April 2009, 21:17:38
  • Posts: 7343
  • Topics: 2500
  • Activity/Aktivnost
    0%
  • OS:
    Windows 7 Windows 7
  • Browser:
    Firefox 3.6.17 Firefox 3.6.17
  • WWW
Logged



« Reply #11 on: 01 May 2011, 19:18:34 »

moze RAPID linkovi?
thx in advance

Postavljeni
  • *
  • New vw scirocco=pusti snovi
  • zahvalnica: 1065

  • pol: Male
  • Location: Banja Luka
  • Date Registerd:10 April 2009, 21:17:38
  • Posts: 7343
  • Topics: 2500
  • Activity/Aktivnost
    0%
  • OS:
    Windows 7 Windows 7
  • Browser:
    Firefox 3.6.17 Firefox 3.6.17
  • WWW
Logged



« Reply #12 on: 02 May 2011, 16:41:35 »

thx
moze RAPID linkovi?
thx in advance

Postavljeni
  • *
  • zahvalnica: 0

  • Date Registerd:16 December 2009, 17:15:19
  • Posts: 27
  • Topics: 5
  • Activity/Aktivnost
    0%
  • OS:
    Windows XP Windows XP
  • Browser:
    Microsoft Internet Explorer 8.0 Microsoft Internet Explorer 8.0
  • Email
Logged
Skoci na stranu: 1    Idi na vrh strane
Send this topic    Print
 
Skoci na:  


Rapidshare Search



Powered by SMF 1.1.10 | SMF © 2006-2009, Simple Machines LLC
Page created in 0.072 seconds with 38 queries.

Google visited last this page 21 July 2014, 11:43:45
Theme created by Logo Off