Hello
  Home Help Login Register DMCA Rules  
19 January 2018, 18:04:23
 

Skoci na stranu: 1    Idi na dno strane
Send this topic    Print
Author Topic: Derailed (2005) DvDRip  (Read 807 times)
« on: 14 January 2011, 18:01:18 »

Derailed (2005) DvDRip



IMDb:
http://www.imdb.com/title/tt0398017/

Code:
http://rapidshare.com/files/181959240/Izbaceni_iz_sina.avi.001
http://rapidshare.com/files/181959241/Izbaceni_iz_sina.avi.002
http://rapidshare.com/files/181985352/Izbaceni_iz_sina.avi.003
http://rapidshare.com/files/181985355/Izbaceni_iz_sina.avi.004
http://rapidshare.com/files/182109870/Izbaceni_iz_sina.avi.005
http://rapidshare.com/files/182109874/Izbaceni_iz_sina.avi.006
http://rapidshare.com/files/182147156/Izbaceni_iz_sina.avi.007

Za spajanje fajlova koristiti "hjsplit".
  • *
  • zahvalnica: 2

  • Date Registerd:15 November 2009, 00:08:49
  • Posts: 23
  • Topics: 17
  • Activity/Aktivnost
    0%
  • OS:
    Windows 7 Windows 7
  • Browser:
    Firefox 3.6.13 Firefox 3.6.13
« Last Edit: 24 January 2011, 13:55:15 by M@X!MU$ » Logged
« Reply #1 on: 09 March 2013, 17:34:24 »

Derailed (2005) + prevod



Code:
http://www.imdb.com/title/tt0398017/

Plot:

Charles Schine (Clive Owen), is a Chicago advertising executive, whose tale is being written down by an unidentified man in a prison cell. A flashback of several months shows Charles with his wife and teenage daughter. Charles's marriage is deteriorating, and his daughter suffers from diabetes, requiring expensive medication.

On a commuter train, Charles encounters an alluring woman named Lucinda Harris (Jennifer Aniston). She is a married financial adviser. A mutual attraction develops, and the two begin meeting frequently. Ultimately, they decide to consummate their affair and wind up in a seedy hotel. An armed man— later identified as Philippe LaRoche (Vincent Cassel)— bursts into the hotel room, beats Charles, and brutally rapes Lucinda. Charles and Lucinda agree not to report the crime, as they do not want their spouses to learn of the affair. Shortly after, Charles is blackmailed by LaRoche, who threatens to kill his family if he doesn't pay $20,000, which Charles promptly pays. A month later, the attacker calls again, this time demanding $100,000.

Charles tells Winston Boyko (RZA), an ex-con, about LaRoche and asks for advice. Winston offers to scare LaRoche away in return for 10% ($10,000) of LaRoche's demand. Charles embezzles the $10,000 from his employer. However, LaRoche shoots Winston dead. Charles is questioned by detective Franklin Church (Giancarlo Esposito) about Winston's murder. Later, he receives a call from LaRoche: He has Lucinda at gunpoint, and will kill her if Charles doesn't bring the $100,000 immediately. Charles takes the money from an account meant specifically for his daughter's medical treatment; the payoff complete, he and Lucinda say a tortured goodbye.

When he stops by Lucinda's office and asks for her, he is shown a woman who is the actual Lucinda Harris. The woman he met on the train is really Jane, a temporary employee, who was impersonating Lucinda. Charles realizes Jane was in on the scam. He tracks her down and sees her kissing LaRoche. Determined to retrieve his stolen $130,000, he follows Jane's moves and sees that she has suckered another unsuspecting businessman. He returns to the hotel where Jane, LaRoche, and their partner Dexter (Xzibit) are setting up their new mark. Jane and the businessman go inside the room; Charles waits for LaRoche to approach, and knocks him unconscious before he enters. He breaks in and demands the return of his money. A gunfight ensues and everyone gets shot but Charles. After the melee, Charles watches the false Lucinda die and leaves with his briefcase, which still contains his money.

Charles is arrested for embezzling the $10,000 that he paid Winston and is sentenced to six months of community service teaching. During one of his classes, he comes across the story about him that was being written at the beginning of the film. The unknown writer instructs him to go to the laundry room—there, he finds LaRoche, who survived the gunfight. LaRoche says he couldn't believe his luck when he realized Charles was sent to teach at the same jail he is in. He threatens to continue interfering with his life but Charles reveals that he himself chose this specific jail, before he stabs LaRoche to death. As he leaves, he encounters Detective Church who tells him that LaRoche also murdered Winston. Though suspicious of Charles, the Detective lets him return home to his wife and daughter.

Cast:

    Clive Owen as Charles Schine
    Jennifer Aniston as Lucinda Harris/Jane
    Vincent Cassel as Philippe LaRoche
    Addison Timlin as Amy Schine
    Melissa George as Deanna Schine
    RZA as Winston Boyko
    William Armstrong as Accountant
    Tom Conti as Eliot Firth
    Rachael Blake as Susan Davis
    Richard Leaf as Night Clerk Ray
    Xzibit as Dexter
    Catherine McCord as Avery Price Receptionist
    Denis O'Hare as Jerry the Lawyer
    Ortis Deley as Cop
    Georgina Chapman as Candy
    Giancarlo Esposito as Detective Franklin Church
    David Morrissey as Sam Griffin



Quote
Format                                   : AVI
Format/Info                              : Audio Video Interleave
File size                                : 702 MiB
Duration                                 : 1h 52mn
Overall bit rate mode                    : Variable
Overall bit rate                         : 872 Kbps
Writing application                      : VirtualDubMod 1.5.4.1 (build 2178/release)
Writing library                          : VirtualDubMod build 2178/release

Video
ID                                       : 0
Format                                   : MPEG-4 Visual
Format profile                           : Advanced Simple@L5
Format settings, BVOP                    : 1
Format settings, QPel                    : No
Format settings, GMC                     : No warppoints
Format settings, Matrix                  : Custom
Codec ID                                 : XVID
Codec ID/Hint                            : XviD
Duration                                 : 1h 52mn
Bit rate                                 : 730 Kbps
Width                                    : 624 pixels
Height                                   : 272 pixels
Display aspect ratio                     : 2.25:1
Frame rate                               : 23.976 fps
Color space                              : YUV
Chroma subsampling                       : 4:2:0
Bit depth                                : 8 bits
Scan type                                : Progressive
Compression mode                         : Lossy
Bits/(Pixel*Frame)                       : 0.179
Stream size                              : 588 MiB (84%)
Writing library                          : XviD 0039 build=2005.09.25 (UTC 2005-09-25)

Audio
ID                                       : 1
Format                                   : MPEG Audio
Format version                           : Version 1
Format profile                           : Layer 3
Mode                                     : Joint stereo
Mode extension                           : MS Stereo
Codec ID                                 : 55
Codec ID/Hint                            : MP3
Duration                                 : 1h 52mn
Bit rate mode                            : Variable
Bit rate                                 : 128 Kbps
Channel(s)                               : 2 channels
Sampling rate                            : 48.0 KHz
Compression mode                         : Lossy
Stream size                              : 103 MiB (15%)
Alignment                                : Aligned on interleaves
Interleave, duration                     : 24 ms (0.58 video frame)
Interleave, preload duration             : 143 ms
Writing library                          : LAME3.96r
Encoding settings                        : -m j -V 4 -q 2 -lowpass 17.5 --abr 128


Code:
http://ul.to/ko3hnxiz
http://ul.to/x38cufg6
  • *
  • ..:: drummer ::..
  • zahvalnica: 121

  • Location: The World
  • Date Registerd:04 June 2009, 19:57:07
  • Posts: 2235
  • Topics: 994
  • Activity/Aktivnost
    0%
  • OS:
    Windows 7 Windows 7
  • Browser:
    Firefox 19.0 Firefox 19.0
Logged
Skoci na stranu: 1    Idi na vrh strane
Send this topic    Print
 
Skoci na:  

Powered by SMF 1.1.10 | SMF © 2006-2009, Simple Machines LLC
Page created in 2.089 seconds with 25 queries.

Google visited last this page 23 December 2017, 01:18:51
Theme created by Logo Off