Hello
  Home Help Login Register DMCA Rules  
23 April 2018, 13:32:24
 

Skoci na stranu: 1    Idi na dno strane
Send this topic    Print
Author Topic: Memoirs of a Geisha (2005)  (Read 1124 times)
« on: 21 September 2009, 14:10:23 »

Memoirs of a Geisha (2005)




 screen




 info



Code:
http://imdb.com/title/tt0397535/

In 1929 an impoverished nine-year-old named Chiyo from a fishing village is sold to a geisha house in Kyoto's Gion district and subjected to cruel treatment from the owners and the head geisha Hatsumomo. Her stunning beauty attracts the vindictive jealousy of Hatsumomo, until she is rescued by and taken under the wing of Hatsumomo's bitter rival, Mameha. Under Mameha's mentorship, Chiyo becomes the geisha named Sayuri, trained in all the artistic and social skills a geisha must master in order to survive in her society. As a renowned geisha she enters a society of wealth, privilege, and political intrigue. As World War II looms Japan and the geisha's world are forever changed by the onslaught of history.


 download



Code:
http://rapidshare.com/files/90210403/Memoirs.Of.A.Geisha_2006_DvDrip_PH_Bubamarica.part1.rar
http://rapidshare.com/files/90312480/Memoirs.Of.A.Geisha_2006_DvDrip_PH_Bubamarica.part2.rar
http://rapidshare.com/files/90318968/Memoirs.Of.A.Geisha_2006_DvDrip_PH_Bubamarica.part3.rar
http://rapidshare.com/files/90318994/Memoirs.Of.A.Geisha_2006_DvDrip_PH_Bubamarica.part4.rar
http://rapidshare.com/files/90325302/Memoirs.Of.A.Geisha_2006_DvDrip_PH_Bubamarica.part5.rar
http://rapidshare.com/files/90325224/Memoirs.Of.A.Geisha_2006_DvDrip_PH_Bubamarica.part6.rar
http://rapidshare.com/files/90329391/Memoirs.Of.A.Geisha_2006_DvDrip_PH_Bubamarica.part7.rar


 nopass
  • .
  • *
  • zahvalnica: 196

  • Location: Paracin
  • Date Registerd:18 September 2009, 13:18:43
  • Posts: 8145
  • Topics: 219
  • Activity/Aktivnost
    0%
  • OS:
    Windows XP Windows XP
  • Browser:
    Firefox 3.5.3 Firefox 3.5.3
    • frenki95@live.com
  • Email
Logged
« Reply #1 on: 10 March 2013, 17:50:09 »

Memoirs of a Geisha (2005) + prevod



Code:
http://www.imdb.com/title/tt0397535/

Memoirs of a Geisha is a 2005 film adaptation of the novel of the same name, produced by Steven Spielberg's Amblin Entertainment and Spyglass Entertainment and by Douglas Wick's Red Wagon Productions. The picture was directed by Rob Marshall and was released in the United States on December 9, 2005 by Columbia Pictures and DreamWorks. It stars Zhang Ziyi, Ken Watanabe, Gong Li, Michelle Yeoh, Youki Kudoh, and Suzuka Ohgo. Ohgo plays the younger Sayuri in the movie, which was filmed in southern and northern California and in several locations in Kyoto, including the Kiyomizu temple and the Fushimi Inari shrine.

Memoirs of a Geisha tells the story of a young girl, Chiyo Sakamoto, who is sold into slavery by her family. Her new family then sends her off to school to become a geisha. This movie is mainly about older Chiyo and her struggle as a geisha to find love, in the process making a lot of enemies. The film was nominated and won numerous awards, including nominations for six Academy Awards, and eventually won three: Best Cinematography, Best Art Direction and Best Costume Design.

The Japanese release of the film was titled Sayuri, the titular character's geisha name.

Cast

    Zhang Ziyi as Chiyo Sakamoto/Sayuri Nitta
    Suzuka Ohgo as Young Chiyo Sakamoto
    Gong Li as Hatsumomo
    Kaori Momoi as Okasan/Mother
    Ken Watanabe as Ken Iwamura
    Michelle Yeoh as Mameha
    Koji Yakusho as Nobu
    Youki Kudoh as Pumpkin
    Tsai Chin as Auntie
    Cary-Hiroyuki Tagawa as Baron
    Cathy Shim as The Baron's Guest
    Kenneth Tsang as General
    Karl Yune as Koichi
    Ted Levine as Colonel Derricks
    Paul Adelstein as Lieutenant Hutchins



Quote
Format                                   : AVI
Format/Info                              : Audio Video Interleave
File size                                : 700 MiB
Duration                                 : 2h 19mn
Overall bit rate mode                    : Variable
Overall bit rate                         : 704 Kbps
Writing application                      : VirtualDubMod 1.5.4.1 (build 2178/release)
Writing library                          : VirtualDubMod build 2178/release

Video
ID                                       : 0
Format                                   : MPEG-4 Visual
Format profile                           : Advanced Simple@L5
Format settings, BVOP                    : 1
Format settings, QPel                    : No
Format settings, GMC                     : No warppoints
Format settings, Matrix                  : Custom
Codec ID                                 : XVID
Codec ID/Hint                            : XviD
Duration                                 : 2h 19mn
Bit rate                                 : 563 Kbps
Width                                    : 608 pixels
Height                                   : 352 pixels
Display aspect ratio                     : 1.727
Frame rate                               : 25.000 fps
Color space                              : YUV
Chroma subsampling                       : 4:2:0
Bit depth                                : 8 bits
Scan type                                : Progressive
Compression mode                         : Lossy
Bits/(Pixel*Frame)                       : 0.105
Stream size                              : 560 MiB (80%)
Writing library                          : XviD 0039 build=2005.09.25 (UTC 2005-09-25)

Audio
ID                                       : 1
Format                                   : MPEG Audio
Format version                           : Version 1
Format profile                           : Layer 3
Mode                                     : Joint stereo
Mode extension                           : MS Stereo
Codec ID                                 : 55
Codec ID/Hint                            : MP3
Duration                                 : 2h 19mn
Bit rate mode                            : Variable
Bit rate                                 : 128 Kbps
Channel(s)                               : 2 channels
Sampling rate                            : 48.0 KHz
Compression mode                         : Lossy
Stream size                              : 127 MiB (18%)
Alignment                                : Aligned on interleaves
Interleave, duration                     : 24 ms (0.60 video frame)
Interleave, preload duration             : 162 ms
Writing library                          : LAME3.96r
Encoding settings                        : -m j -V 4 -q 2 -lowpass 17.5 --abr 128
Language                                 : English


Code:
http://ul.to/fbfdaxsm
http://ul.to/64gd0vd4
  • *
  • ..:: drummer ::..
  • zahvalnica: 121

  • Location: The World
  • Date Registerd:04 June 2009, 20:57:07
  • Posts: 2235
  • Topics: 931
  • Activity/Aktivnost
    0%
  • OS:
    Windows 7 Windows 7
  • Browser:
    Firefox 19.0 Firefox 19.0
Logged
« Reply #2 on: 15 January 2014, 12:46:19 »

Thanks  afro1 afro1
  • *
  • zahvalnica: 0

  • Date Registerd:06 January 2011, 16:08:26
  • Posts: 860
  • Topics: 825
  • Activity/Aktivnost
    0%
  • OS:
    Windows 7 Windows 7
  • Browser:
    Firefox 26.0 Firefox 26.0
Logged
Skoci na stranu: 1    Idi na vrh strane
Send this topic    Print
 
Skoci na:  

Powered by SMF 1.1.10 | SMF © 2006-2009, Simple Machines LLC
Page created in 1.389 seconds with 26 queries.

Google visited last this page 02 March 2018, 09:31:24
Theme created by Logo Off