Hello
  Home Help Login Register DMCA Rules  
24 April 2018, 18:43:49
 

Skoci na stranu: 1    Idi na dno strane
Send this topic    Print
Author Topic: The Prestige (2006)  (Read 501 times)
« on: 15 March 2013, 11:05:27 »

The Prestige (2006)
Prevod u rar arhivi



Code:
http://www.imdb.com/title/tt0482571/

The Prestige is a 2006 British-American mystery thriller film written, directed and co-produced by Christopher Nolan, with a screenplay adapted from Christopher Priest's 1995 novel of the same name. The story follows Robert Angier and Alfred Borden, rival stage magicians in London at the end of the 19th century. Obsessed with creating the best stage illusion, they engage in competitive one-upmanship with tragic results.

The film features Hugh Jackman as Robert Angier, Christian Bale as Alfred Borden, and David Bowie as Nikola Tesla. It also stars Michael Caine, Scarlett Johansson, Piper Perabo, Rebecca Hall, and Andy Serkis.

Priest's epistolary novel was adapted to the screen by Nolan and his brother, Jonathan Nolan, using nonlinear narrative structure. The film was released on October 20, 2006, receiving positive reviews and strong box office results, and Academy Award nominations for Best Cinematography and Best Art Direction.

Starring:    

    Hugh Jackman
    Christian Bale
    Scarlett Johansson
    Michael Caine



Quote
Format                                   : AVI
Format/Info                              : Audio Video Interleave
File size                                : 701 MiB
Duration                                 : 2h 10mn
Overall bit rate                         : 751 Kbps
Writing application                      : VirtualDubMod 1.5.10.1 (build 2366/release)
Writing library                          : VirtualDubMod build 2366/release

Video
ID                                       : 0
Format                                   : MPEG-4 Visual
Format profile                           : Advanced Simple@L5
Format settings, BVOP                    : 2
Format settings, QPel                    : No
Format settings, GMC                     : No warppoints
Format settings, Matrix                  : Default (H.263)
Codec ID                                 : DX50
Codec ID/Hint                            : DivX 5
Duration                                 : 2h 10mn
Bit rate                                 : 646 Kbps
Width                                    : 572 pixels
Height                                   : 236 pixels
Display aspect ratio                     : 2.40:1
Frame rate                               : 23.976 fps
Color space                              : YUV
Chroma subsampling                       : 4:2:0
Bit depth                                : 8 bits
Scan type                                : Progressive
Compression mode                         : Lossy
Bits/(Pixel*Frame)                       : 0.199
Stream size                              : 602 MiB (86%)
Writing library                          : XviD 1.0.3 (UTC 2004-12-20)

Audio
ID                                       : 1
Format                                   : MPEG Audio
Format version                           : Version 1
Format profile                           : Layer 3
Codec ID                                 : 55
Codec ID/Hint                            : MP3
Duration                                 : 2h 10mn
Bit rate mode                            : Constant
Bit rate                                 : 96.0 Kbps
Channel(s)                               : 2 channels
Sampling rate                            : 48.0 KHz
Compression mode                         : Lossy
Stream size                              : 89.6 MiB (13%)
Alignment                                : Aligned on interleaves
Interleave, duration                     : 42 ms (1.00 video frame)
Interleave, preload duration             : 504 ms


Code:
http://ul.to/weedeqpl
http://ul.to/55otv3xp


Code:
http://uptobox.com/9y5v69bhthdd
http://uptobox.com/igyb1wamb0on
  • *
  • ..:: drummer ::..
  • zahvalnica: 121

  • Location: The World
  • Date Registerd:04 June 2009, 20:57:07
  • Posts: 2235
  • Topics: 931
  • Activity/Aktivnost
    0%
  • OS:
    Windows 7 Windows 7
  • Browser:
    Firefox 19.0 Firefox 19.0
Logged
Skoci na stranu: 1    Idi na vrh strane
Send this topic    Print
 
Skoci na:  

Powered by SMF 1.1.10 | SMF © 2006-2009, Simple Machines LLC
Page created in 0.521 seconds with 24 queries.

Google visited last this page 05 March 2018, 19:00:23
Theme created by Logo Off