Hello
  Home Help Login Register DMCA Rules  
14 December 2017, 01:40:37
 

Skoci na stranu: 1    Idi na dno strane
Send this topic    Print
Author Topic: Se7en / Seven (1995) DVDRip  (Read 1393 times)
« on: 28 April 2009, 18:20:16 »

Se7en (1995) DVDRip XviD



 info
Directed by: David Fincher
Genre: Crime,Mystery,Thriller
Country: USA
Language: English,Portuguese
Tagline: Long is the way, and hard, that out of hell leads up to light.
Plot Outline: Police drama about two cops, one new and one about to retire, after a serial killer using the seven deadly sins as his MO.
User Rating: 8.6/10 (226,028 votes) Top 250: #33
Runtime: 127 min
Awards: Nominated for Oscar. Another 19 wins & 17 nominations
Cast (first 10): Brad Pitt, Morgan Freeman, Gwyneth Paltrow, R. Lee Ermey, Andrew Kevin Walker, Daniel Zacapa, John Cassini, Bob Mack, Peter Crombie, Reg E. Cathey

IMDB:



 screen



Sample



 download




  • *
  • zahvalnica: 61

  • Date Registerd:20 April 2009, 18:31:57
  • Posts: 132
  • Topics: 111
  • Activity/Aktivnost
    0%
  • OS:
    Windows XP Windows XP
  • Browser:
    Firefox 3.0.10 Firefox 3.0.10
« Last Edit: 25 October 2009, 23:47:23 by Mar23p » Logged
« Reply #1 on: 25 October 2009, 17:18:57 »



 info
Code:
Seven (1995) DVDRiP XViD SB0
Post Information
Posted by............: SB0
Release Notes
General
Complete name : SEVEN DVDRiP XViD SB0.avi
Format : AVI
Format/Info : Audio Video Interleave
File size : 700 MiB
Duration : 2h 1mn
Overall bit rate : 805 Kbps
Writing application : VirtualDubMod 1.5.4.1 (build 2178/release)
Writing library : VirtualDubMod build 2178/release
IMDB : http://www.imdb.com/title/tt0114369/

 download
Code:
http://rapidshare.com/files/258733208/7.DVDRiP.XViD.SB0.part1.rar
http://rapidshare.com/files/258733004/7.DVDRiP.XViD.SB0.part2.rar
http://rapidshare.com/files/258732969/7.DVDRiP.XViD.SB0.part3.rar
http://rapidshare.com/files/258737370/7.DVDRiP.XViD.SB0.part4.rar

 password
Code:
CyberDeViLZ
  • *
  • zahvalnica: 441

  • Location: Novi Sad
  • Date Registerd:17 May 2009, 22:19:40
  • Posts: 2774
  • Topics: 2312
  • Activity/Aktivnost
    0%
  • OS:
    Windows XP Windows XP
  • Browser:
    Firefox 3.5.3 Firefox 3.5.3
  • WWW
Logged

« Reply #2 on: 21 December 2009, 20:23:55 »

Se7en (1995) Criterion Laserdisc Edition 2008



 info

Code:
Type: Movie
Platform: VIDEO_TS folder
Video Format: MPEG2-720/704x480-NTSC
Aspect ratio: Disc 1: 16x9, Disc 2: 4x3
Audio Format: Dolby Digital 2.0 192kbps, 256kbps
Main Movie Runtime: 127min, Misc
Original Format: NTSC
Size: DVD5 x 2

Se7en
The Criterion Collection
Mastered from the Laserdisc

Disc 1: Original film with commentary

Disc 2: Supplements

Disk 1
Code:
http://rapidshare.com/files/291531203/dfnyc.dfoo4.seven.d1.dlc

Disk 2
Code:
http://rapidshare.com/files/291531211/dfnyc.dfoo4.seven.d2.dlc

 password

Code:
preserv
  • *
  • zahvalnica: 79

  • Date Registerd:06 October 2009, 21:10:47
  • Posts: 785
  • Topics: 210
  • Activity/Aktivnost
    0%
  • OS:
    Windows XP Windows XP
  • Browser:
    Firefox 3.5.6 Firefox 3.5.6
  • Email
Logged
« Reply #3 on: 12 March 2013, 10:20:42 »

Se7en (1995) + prevod



Code:
http://www.imdb.com/title/tt0114369/

Seven (sometimes stylized as Se7en) is a 1995 American thriller film written by Andrew Kevin Walker, directed by David Fincher, and distributed by New Line Cinema. It stars Brad Pitt and Morgan Freeman, with Gwyneth Paltrow, R. Lee Ermey, and Kevin Spacey in supporting roles.

The newly transferred David Mills (Pitt) and the soon-to-retire William Somerset (Freeman) are homicide detectives who become deeply involved in the case of a sadistic serial killer whose meticulously planned murders correspond to the seven deadly sins: gluttony, greed, sloth, wrath, pride, lust, and envy.

The film was released in the United States on September 22, 1995. Grossing $327 million at the box office internationally, Seven was a commercial success, and received positive reviews from most critics.

Cast:

    Brad Pitt as Detective David Mills
    Morgan Freeman as Detective Lt. William Somerset
    Gwyneth Paltrow as Theresa "Tracy" Mills
    Richard Roundtree as Dist. Atty. Martin Talbot
    Richard Schiff as Mark Swarr, John Doe's attorney
    R. Lee Ermey as Police Captain
    John C. McGinley as California, SWAT team leader
    Kevin Spacey as John Doe
    Julie Araskog as Mrs. Gould
    Mark Boone Junior as Greasy FBI Man
    John Cassini as Officer Davis
    Reg E. Cathey as Coroner
    Peter Crombie as Dr. O'Neill
    Hawthorne James as George, library night guard
    Michael Massee as Man in Massage Parlour Booth
    Leland Orser as Crazed Man in Massage Parlour
    Richard Portnow as Dr. Beardsley
    Daniel Zacapa as Detective Taylor
    Alfonso Freeman as Fingerprint Tech
    Harris Savides as 911 Operator
    Andy Walker as Dead Man
    Richmond Arquette as Delivery Man
    Charles S. Dutton (uncredited) as Cop



Quote
Format                                   : AVI
Format/Info                              : Audio Video Interleave
File size                                : 694 MiB
Duration                                 : 2h 1mn
Overall bit rate                         : 798 Kbps
Writing library                          : VirtualDub build 11759/release

Video
ID                                       : 0
Format                                   : MPEG-4 Visual
Codec ID                                 : DIV3
Codec ID/Hint                            : DivX 3 Low
Duration                                 : 2h 1mn
Bit rate                                 : 692 Kbps
Width                                    : 720 pixels
Height                                   : 320 pixels
Display aspect ratio                     : 2.25:1
Frame rate                               : 25.000 fps
Color space                              : YUV
Chroma subsampling                       : 4:2:0
Bit depth                                : 8 bits
Compression mode                         : Lossy
Bits/(Pixel*Frame)                       : 0.120
Stream size                              : 602 MiB (87%)

Audio
ID                                       : 1
Format                                   : MPEG Audio
Format version                           : Version 1
Format profile                           : Layer 3
Mode                                     : Joint stereo
Mode extension                           : Intensity Stereo + MS Stereo
Codec ID                                 : 55
Codec ID/Hint                            : MP3
Duration                                 : 2h 1mn
Bit rate mode                            : Constant
Bit rate                                 : 96.0 Kbps
Channel(s)                               : 2 channels
Sampling rate                            : 44.1 KHz
Compression mode                         : Lossy
Stream size                              : 83.4 MiB (12%)
Alignment                                : Split accross interleaves
Interleave, duration                     : 40 ms (1.00 video frame)
Interleave, preload duration             : 500 ms


Code:
http://ul.to/yycxb7ej
http://ul.to/2i1hvrdt
  • *
  • ..:: drummer ::..
  • zahvalnica: 121

  • Location: The World
  • Date Registerd:04 June 2009, 19:57:07
  • Posts: 2235
  • Topics: 994
  • Activity/Aktivnost
    0%
  • OS:
    Windows 7 Windows 7
  • Browser:
    Firefox 19.0 Firefox 19.0
Logged
Skoci na stranu: 1    Idi na vrh strane
Send this topic    Print
 
Skoci na:  

Powered by SMF 1.1.10 | SMF © 2006-2009, Simple Machines LLC
Page created in 4.247 seconds with 28 queries.

Google visited last this page 12 December 2017, 21:54:00
Theme created by Logo Off