Hello
  Home Help Login Register DMCA Rules  
21 September 2017, 14:24:35
 

Rapidshare Search
Skoci na stranu: 1    Idi na dno strane
Send this topic    Print
Author Topic: Seven Years In Tibet (1997) DVDDRip  (Read 849 times)
0 Members and 1 Guest are viewing this topic.
« on: 17 October 2009, 22:32:38 »

Seven Years In Tibet (1997)



 info
Directed by: Jean-Jacques Annaud
Genre: Adventure,Biography,Drama,History,War
Country: USA
Language: English,German,Mandarin,Tibetan
Plot Outline: True story of Heinrich Harrer, an Austrian mountain climber who became friends with the Dalai Lama at the time of China's takeover of Tibet.
User Rating: 6.7/10 (25,313 votes)
Runtime: 139 min
Awards: Nominated for Golden Globe. Another 3 wins & 6 nominations
Cast (first 10): Brad Pitt, David Thewlis, B.D. Wong, Mako, Danny Denzongpa, Victor Wong, Ingeborga Dapkunaite, Jamyang Jamtsho Wangchuk, Lhakpa Tsamchoe, Jetsun Pema

IMDB:
Code:
http://www.imdb.com/title/tt0120102/

 screen


 download
Code:
http://rapidshare.com/files/39397265/tibet-xvid-data.part1.rar
http://rapidshare.com/files/39397243/tibet-xvid-data.part2.rar
http://rapidshare.com/files/39397237/tibet-xvid-data.part3.rar
http://rapidshare.com/files/39397232/tibet-xvid-data.part4.rar
http://rapidshare.com/files/39397264/tibet-xvid-data.part5.rar
http://rapidshare.com/files/39397256/tibet-xvid-data.part6.rar
http://rapidshare.com/files/39397266/tibet-xvid-data.part7.rar
http://rapidshare.com/files/39395290/tibet-xvid-data.part8.rar

 password
Code:
lol
  • *
  • zahvalnica: 1148

  • pol: Male
  • Date Registerd:26 March 2009, 17:58:17
  • Posts: 4437
  • Topics: 2634
  • Activity/Aktivnost
    0%
  • OS:
    Windows XP Windows XP
  • Browser:
    Firefox 3.5.3 Firefox 3.5.3
  • WWW
Logged



« Reply #1 on: 08 March 2013, 20:17:00 »

Seven Years in Tibet (1997)



Code:
http://www.imdb.com/title/tt0120102/

Cast:

    Brad Pitt as Heinrich Harrer
    David Thewlis as Peter Aufschnaiter
    B.D. Wong as Ngawang Jigme
    Mako as Kungo Tsarong
    Danny Denzongpa as Regent
    Victor Wong as Chinese 'Amban'
    Ingeborga Dapkunaite as Ingrid Harrer
    Jamyang Jamtsho Wangchuk as Dalai Lama, 14 years old
    Lhakpa Tsamchoe as Pema Lhaki
    Jetsun Pema as The Great Mother
    Ama Ashe Dongtse as Tashi
    Sonam Wangchuk as Dalai Lama, 8 years old
    Dorjee Tsering as Dalai Lama, 4 years old
    Ric Young as General Chang Jing Wu
    Ngawang Chojor as Lord Chamberlain (as Ven. Ngawang Chojor



Quote
Format                                   : AVI
Format/Info                              : Audio Video Interleave
File size                                : 694 MiB
Duration                                 : 2h 15mn
Overall bit rate                         : 713 Kbps
Writing library                          : Nandub build 1310/release

Video
ID                                       : 0
Format                                   : MPEG-4 Visual
Codec ID                                 : DIV3
Codec ID/Hint                            : DivX 3 Low
Duration                                 : 2h 15mn
Bit rate                                 : 605 Kbps
Width                                    : 576 pixels
Height                                   : 256 pixels
Display aspect ratio                     : 2.25:1
Frame rate                               : 23.976 fps
Color space                              : YUV
Chroma subsampling                       : 4:2:0
Bit depth                                : 8 bits
Compression mode                         : Lossy
Bits/(Pixel*Frame)                       : 0.171
Stream size                              : 589 MiB (85%)

Audio
ID                                       : 1
Format                                   : MPEG Audio
Format version                           : Version 1
Format profile                           : Layer 3
Mode                                     : Joint stereo
Mode extension                           : Intensity Stereo
Codec ID                                 : 55
Codec ID/Hint                            : MP3
Duration                                 : 2h 15mn
Bit rate mode                            : Constant
Bit rate                                 : 96.0 Kbps
Channel(s)                               : 2 channels
Sampling rate                            : 44.1 KHz
Compression mode                         : Lossy
Stream size                              : 93.4 MiB (13%)
Alignment                                : Aligned on interleaves
Interleave, duration                     : 26 ms (0.63 video frame)
Interleave, preload duration             : 496 ms



Code:
http://ul.to/vbqxthdd
http://ul.to/4w0v5x6z
  • *
  • zahvalnica: 121

  • pol: Male
  • Location: The World
  • Date Registerd:04 June 2009, 20:57:07
  • Posts: 2235
  • Topics: 994
  • Activity/Aktivnost
    0%
  • OS:
    Windows 7 Windows 7
  • Browser:
    Firefox 19.0 Firefox 19.0
Logged
Skoci na stranu: 1    Idi na vrh strane
Send this topic    Print
 
Skoci na:  

Powered by SMF 1.1.10 | SMF © 2006-2009, Simple Machines LLC
Page created in 0.368 seconds with 26 queries.

Google visited last this page 02 January 2016, 08:34:07
Theme created by Logo Off