Hello
  Home Help Login Register DMCA Rules  
21 April 2018, 15:11:32
 

Skoci na stranu: 1    Idi na dno strane
Send this topic    Print
Author Topic: Le Pacte des loups / Brotherhood of the Wolf (2001) DVDRip  (Read 1770 times)
« on: 26 October 2009, 01:51:31 »

Le Pacte des loups / Brotherhood of the Wolf (2001)



 info
http://Directed by: Christophe Gans
Genre: Action,History,Horror,Mystery
Country: France
Language: French,German,Italian
Plot Outline: In 18th century France, the Chevalier de Fronsac and his native American friend Mani are sent by the King to the Gevaudan province to investigate the killings of hundreds by a mysterious beast.
User Rating: 7.0/10 (27,078 votes)
Runtime: 142 min | 152 min
Awards: 3 wins & 20 nominations
Cast (first 10): Samuel Le Bihan, Vincent Cassel, Émilie Dequenne, Monica Bellucci, Jérémie Renier, Mark Dacascos, Jean Yanne, Jean-François Stévenin, Jacques Perrin, Edith Scob

IMDB:



 screen




 download



  • *
  • One Night in New York city
  • zahvalnica: 1148

  • Date Registerd:26 March 2009, 17:58:17
  • Posts: 4437
  • Topics: 2518
  • Activity/Aktivnost
    0%
  • OS:
    Windows XP Windows XP
  • Browser:
    Firefox 3.5.3 Firefox 3.5.3
  • WWW
« Last Edit: 18 November 2009, 19:00:39 by Mar23p » Logged



« Reply #1 on: 12 March 2013, 11:04:38 »

Le pacte des loups (Brotherhood of the Wolf) (2001)



Code:
http://www.imdb.com/title/tt0237534/

Movie Info:

French legend has it that a creature known as the Beast of Gevaudan -- a huge, wolf-like monster -- was responsible for the violent deaths of over 100 persons in the mid-18th century, and this horror fantasy blends the lore of this fabled beast with a story of two men who set out to capture it. After a number of mutilated corpses begin appearing across the French countryside, naturalist Chevalier Gregoire de Fronsac (Samuel Le Bihan) is dispatched by the King to find and capture the animal responsible for the killings. Mani (Mark Dacascos), an Indian from Canada and an experienced hand in the wilds, is hired to assist de Fronsac in his work. Gregoire's assignment earns him the acquaintance of Marianne de Morangias (Emilie Dequenne), the lovely daughter of the idly wealthy Count de Morangias (Jean Yanne), but Gregoire receives a much chillier welcome from her brother Jean-Francois (Vincent Cassel), who, despite having lost an arm to a lion in Africa, is quite the huntsman himself. As Gregoire and Mani arrive in the village of Gevaudan, they're drawn to a local house of prostitution, where the animalistic allure and supernatural powers of Sylvia (Monica Bellucci) prove to have a profound effect on the naive Gregoire. Jim Henson's Creature Shop provided the special-effects expertise for the creation of the Beast of Gevaudan.

Cast:

    Samuel Le Bihan as Knight Gregoire de Fronsac
    Vincent Cassel as Jean-François de Morangias
    Émilie Dequenne as Marianne de Morangias
    Monica Bellucci as Sylvia
    Jeremie Renier as Marquis Thomas d'Apcher
    Mark Dacascos as Mani
    Jean Yanne as Count de Morangias
    Jean-Francois Stevenin as Father Henri Sardis
    Jacques Perrin as Thomas d'Apcher (old)
    Edith Scob as Countess Genevieve de Morangias
    Johan Leysen as Antoine de Beauterne
    Bernard Farcy as Intendant Pierre-Jean Laffont
    Hans Meyer as Marquis d'Apcher
    Virginie Darmon as La Bavarde
    Philippe Nahon as Jean Chastel
    Eric Prat as Captain Duhamel
    Jean-Loup Wolff as Duke Gontrand de Moncan
    Gaspard Ulliel as Louis
    Dee Bradley Baker as Beast vocal effects



Quote
Format                                   : AVI
Format/Info                              : Audio Video Interleave
File size                                : 688 MiB
Duration                                 : 2h 11mn
Overall bit rate                         : 734 Kbps
Writing library                          : VirtualDub build 0/release

Video
ID                                       : 0
Format                                   : MPEG-4 Visual
Codec ID                                 : DIV3
Codec ID/Hint                            : DivX 3 Low
Duration                                 : 2h 11mn
Bit rate                                 : 626 Kbps
Width                                    : 576 pixels
Height                                   : 240 pixels
Display aspect ratio                     : 2.40:1
Frame rate                               : 25.000 fps
Color space                              : YUV
Chroma subsampling                       : 4:2:0
Bit depth                                : 8 bits
Compression mode                         : Lossy
Bits/(Pixel*Frame)                       : 0.181
Stream size                              : 586 MiB (85%)

Audio
ID                                       : 1
Format                                   : MPEG Audio
Format version                           : Version 1
Format profile                           : Layer 3
Mode                                     : Joint stereo
Mode extension                           : Intensity Stereo + MS Stereo
Codec ID                                 : 55
Codec ID/Hint                            : MP3
Duration                                 : 2h 11mn
Bit rate mode                            : Constant
Bit rate                                 : 96.0 Kbps
Channel(s)                               : 2 channels
Sampling rate                            : 44.1 KHz
Compression mode                         : Lossy
Stream size                              : 90.0 MiB (13%)
Alignment                                : Aligned on interleaves
Interleave, duration                     : 26 ms (0.65 video frame)
Interleave, preload duration             : 496 ms


Code:
http://ul.to/8s8a8lf3
http://ul.to/td4g7q3u
  • *
  • ..:: drummer ::..
  • zahvalnica: 121

  • Location: The World
  • Date Registerd:04 June 2009, 20:57:07
  • Posts: 2235
  • Topics: 931
  • Activity/Aktivnost
    0%
  • OS:
    Windows 7 Windows 7
  • Browser:
    Firefox 19.0 Firefox 19.0
Logged
Skoci na stranu: 1    Idi na vrh strane
Send this topic    Print
 
Skoci na:  

Powered by SMF 1.1.10 | SMF © 2006-2009, Simple Machines LLC
Page created in 2.307 seconds with 25 queries.

Google visited last this page 27 February 2018, 09:06:39
Theme created by Logo Off