Hello
  Home Help Login Register DMCA Rules  
19 January 2018, 17:57:15
 

Skoci na stranu: 1    Idi na dno strane
Send this topic    Print
Author Topic: The Good Shepherd (2006) DVDRip  (Read 781 times)
« on: 19 April 2009, 20:43:57 »

The Good Shepherd (2006)



 info

Code:
http://www.imdb.com/title/tt0343737/

 download

Code:
http://rapidshare.com/files/220521076/TGSW.part01.rar
http://rapidshare.com/files/220525468/TGSW.part02.rar
http://rapidshare.com/files/220529951/TGSW.part03.rar
http://rapidshare.com/files/220534423/TGSW.part04.rar
http://rapidshare.com/files/220538623/TGSW.part05.rar
http://rapidshare.com/files/220576281/TGSW.part06.rar
http://rapidshare.com/files/220580519/TGSW.part07.rar
http://rapidshare.com/files/220584565/TGSW.part08.rar
http://rapidshare.com/files/220588776/TGSW.part09.rar
http://rapidshare.com/files/220592671/TGSW.part10.rar
http://rapidshare.com/files/220596298/TGSW.part11.rar
http://rapidshare.com/files/220599906/TGSW.part12.rar
http://rapidshare.com/files/220603486/TGSW.part13.rar
http://rapidshare.com/files/220606985/TGSW.part14.rar
http://rapidshare.com/files/220609210/TGSW.part15.rar
Password :
Code:
nobodys
  • *
  • One Night in New York city
  • zahvalnica: 1148

  • Date Registerd:26 March 2009, 16:58:17
  • Posts: 4437
  • Topics: 2634
  • Activity/Aktivnost
    0%
  • OS:
    Windows XP Windows XP
  • Browser:
    Firefox 3.0.8 Firefox 3.0.8
  • WWW
Logged



« Reply #1 on: 10 March 2013, 09:32:47 »

The Good Shepherd (2006) + prevod



Code:
http://www.imdb.com/title/tt0343737/

The Good Shepherd is a 2006 spy film directed by Robert De Niro and starring Matt Damon and Angelina Jolie with an ensemble supporting cast including De Niro, William Hurt, Alec Baldwin et al. Although it is a fictional film loosely based on real events, it is advertised as telling the untold story of the birth of counter-intelligence in the Central Intelligence Agency (CIA). The film's main character, Edward Wilson (Damon), is loosely based on James Jesus Angleton and Richard M. Bissell. William Hurt's character, Phillip Allen, is largely based on Allen Dulles, while General Bill Sullivan (De Niro), is loosely based on Major General William Joseph Donovan.

Cast:

    Matt Damon as Edward Wilson, Sr.; based on James Jesus Angleton
    Angelina Jolie as Margaret "Clover" Russell Wilson
    Robert De Niro as General William "Bill" Sullivan; based on William Donovan
    Alec Baldwin as FBI Agent Samuel "Sam" Murach
    Billy Crudup as Archibald "Arch" Cummings; based on Kim Philby, and named for E. E. Cummings, a real life confidante of Angleton.
    Tammy Blanchard as Laura
    Keir Dullea as Senator John Russell, Sr.
    Michael Gambon as Dr. Fredericks
    Martina Gedeck as Hanna Schiller
    Timothy Hutton as Admiral Thomas Wilson
    William Hurt as CIA Director Philip Allen; based on Allen Dulles
    Gabriel Macht as John Russell, Jr.
    Lee Pace as Deputy Director Richard Hayes; based on Richard Helms
    Joe Pesci as Joseph Palmi; based partly on Sam Giancana and Santo Trafficante, Jr.
    Eddie Redmayne as older Edward Wilson, Jr.
    John Sessions as Valentin Mironov #1/Yuri Modin; based on Anatoliy Golitsyn, and on Yuri Modin, the 'legman' KGB operative controlling the 'Cambridge Five'.
    Mark Ivanir as Valentin Mironov #2; based on Yuri Nosenko
    Oleg Stefan as Ulysses/Stas Siyanko
    John Turturro as Ray Brocco; based on Angleton deputy Raymond Rocca
    Liya Kebede as Miriam.



Quote
Format                                   : AVI
Format/Info                              : Audio Video Interleave
File size                                : 901 MiB
Duration                                 : 2h 47mn
Overall bit rate                         : 752 Kbps
Writing application                      : VirtualDubMod 1.5.10.1 (build 2366/release)
Writing library                          : VirtualDubMod build 2366/release

Video
ID                                       : 0
Format                                   : MPEG-4 Visual
Format profile                           : Advanced Simple@L5
Format settings, BVOP                    : 2
Format settings, QPel                    : No
Format settings, GMC                     : No warppoints
Format settings, Matrix                  : Default (H.263)
Codec ID                                 : DX50
Codec ID/Hint                            : DivX 5
Duration                                 : 2h 47mn
Bit rate                                 : 631 Kbps
Width                                    : 560 pixels
Height                                   : 226 pixels
Display aspect ratio                     : 2.478
Frame rate                               : 23.976 fps
Color space                              : YUV
Chroma subsampling                       : 4:2:0
Bit depth                                : 8 bits
Scan type                                : Progressive
Compression mode                         : Lossy
Bits/(Pixel*Frame)                       : 0.208
Stream size                              : 756 MiB (84%)
Writing library                          : XviD 1.0.3 (UTC 2004-12-20)

Audio
ID                                       : 1
Format                                   : MPEG Audio
Format version                           : Version 1
Format profile                           : Layer 3
Codec ID                                 : 55
Codec ID/Hint                            : MP3
Duration                                 : 2h 47mn
Bit rate mode                            : Constant
Bit rate                                 : 112 Kbps
Channel(s)                               : 2 channels
Sampling rate                            : 48.0 KHz
Compression mode                         : Lossy
Stream size                              : 134 MiB (15%)
Alignment                                : Aligned on interleaves
Interleave, duration                     : 42 ms (1.00 video frame)
Interleave, preload duration             : 504 ms


Code:
http://ul.to/9kdp32eo
http://ul.to/xvbzgkpp
  • *
  • ..:: drummer ::..
  • zahvalnica: 121

  • Location: The World
  • Date Registerd:04 June 2009, 19:57:07
  • Posts: 2235
  • Topics: 994
  • Activity/Aktivnost
    0%
  • OS:
    Windows 7 Windows 7
  • Browser:
    Firefox 19.0 Firefox 19.0
Logged
Skoci na stranu: 1    Idi na vrh strane
Send this topic    Print
 
Skoci na:  

Powered by SMF 1.1.10 | SMF © 2006-2009, Simple Machines LLC
Page created in 1.551 seconds with 25 queries.

Google visited last this page 04 January 2018, 20:09:05
Theme created by Logo Off