Hello
  Home Help Login Register DMCA Rules  
12 December 2017, 05:30:10
 

Skoci na stranu: 1    Idi na dno strane
Send this topic    Print
Author Topic: Macbeth (2015)  (Read 605 times)
« on: 23 January 2016, 21:05:06 »

Macbeth (2015) 1080p BluRay X264 AMIABLE
File Size: 7.65 GiB



RELEAsEN0TEs
Code:
General
Complete name                  : M-a-c-b-e-t-h.2015.1080p.BluRay.X264-AMIABLE.mkv
Format                         : Matroska
Format version                 : Version 2
File size                      : 7.65 GiB
Duration                       : 1h 52mn
Overall bit rate               : 9 698 Kbps
Writing application            : mkvmerge v6.6.0 ('The Edge Of The In Between') built on Dec 1 2013 17:55:00
Writing library                : libebml v1.3.0 + libmatroska v1.4.1

Video
ID                             : 1
Format                         : AVC
Format/Info                    : Advanced Video Codec
Format profile                 : High@L4.1
Format settings, CABAC         : Yes
Format settings, ReFrames      : 5 frames
Codec ID                       : V_MPEG4/ISO/AVC
Duration                       : 1h 52mn
Bit rate                       : 8 195 Kbps
Width                          : 1 920 pixels
Height                         : 808 pixels
Display aspect ratio           : 2.40:1
Frame rate mode                : Constant
Frame rate                     : 24.000 fps
Color space                    : YUV
Chroma subsampling             : 4:2:0
Bit depth                      : 8 bits
Scan type                      : Progressive
Bits/(Pixel*Frame)             : 0.220
Stream size                    : 6.30 GiB (82%)
Writing library                : x264 core 148 r2638 7599210
Language                       : English
Default                        : Yes
Forced                         : No

Audio
ID                             : 2
Format                         : DTS
Format/Info                    : Digital Theater Systems
Mode                           : 16
Format settings, Endianness    : Big
Codec ID                       : A_DTS
Duration                       : 1h 52mn
Bit rate mode                  : Constant
Bit rate                       : 1 509 Kbps
Channel count                  : 6 channels
Channel positions              : Front: L C R, Side: L R, LFE
Sampling rate                  : 48.0 KHz
Bit depth                      : 24 bits
Compression mode               : Lossy
Stream size                    : 1.19 GiB (16%)
Language                       : English
Default                        : Yes
Forced                         : No

PLOT: Macbeth, the Thane of Glamis, receives a prophecy from a trio of witches that one day he will become King of Scotland. Consumed by ambition and spurred to action by his wife, Macbeth murders his king and takes the throne for himself.

Code:
http://www.imdb.com/title/tt2884018/

sCREENsH0Ts








D0WNL0AD
Code:
http://rapidgator.net/file/1a9a5756a13f60b58e9ee35e0e5bc558/M-a-c-b-e-t-h.2015.1080p.BluRay.X264-AMIABLE.part1.rar.html
http://rapidgator.net/file/5204b91541dbb606c1be4f9981763919/M-a-c-b-e-t-h.2015.1080p.BluRay.X264-AMIABLE.part2.rar.html
http://rapidgator.net/file/f42b977cc84e7051cab5930aa9dcb077/M-a-c-b-e-t-h.2015.1080p.BluRay.X264-AMIABLE.part3.rar.html
http://rapidgator.net/file/58d684cd54ac276a4e5fc4552a8c7fde/M-a-c-b-e-t-h.2015.1080p.BluRay.X264-AMIABLE.part4.rar.html
http://rapidgator.net/file/6785d6431579f63ac7dc54bb8369974e/M-a-c-b-e-t-h.2015.1080p.BluRay.X264-AMIABLE.part5.rar.html
http://rapidgator.net/file/5a1cf81ff1de1026f08b2a036f952d81/M-a-c-b-e-t-h.2015.1080p.BluRay.X264-AMIABLE.part6.rar.html
http://rapidgator.net/file/1f389a3e36aa5214ceb5b7d9caf4e9d1/M-a-c-b-e-t-h.2015.1080p.BluRay.X264-AMIABLE.part7.rar.html
http://rapidgator.net/file/ca4df94406ce89597cc64cb903cbcca2/M-a-c-b-e-t-h.2015.1080p.BluRay.X264-AMIABLE.part8.rar.html

http://uploaded.net/file/oc6bjipk/M-a-c-b-e-t-h.2015.1080p.BluRay.X264-AMIABLE.part1.rar
http://uploaded.net/file/fxb63uv6/M-a-c-b-e-t-h.2015.1080p.BluRay.X264-AMIABLE.part2.rar
http://uploaded.net/file/5vqd04fq/M-a-c-b-e-t-h.2015.1080p.BluRay.X264-AMIABLE.part3.rar
http://uploaded.net/file/j5i9yza2/M-a-c-b-e-t-h.2015.1080p.BluRay.X264-AMIABLE.part4.rar
http://uploaded.net/file/vxsw4ji1/M-a-c-b-e-t-h.2015.1080p.BluRay.X264-AMIABLE.part5.rar
http://uploaded.net/file/ptljcmze/M-a-c-b-e-t-h.2015.1080p.BluRay.X264-AMIABLE.part6.rar
http://uploaded.net/file/o9cyosrf/M-a-c-b-e-t-h.2015.1080p.BluRay.X264-AMIABLE.part7.rar
http://uploaded.net/file/mybt6phy/M-a-c-b-e-t-h.2015.1080p.BluRay.X264-AMIABLE.part8.rar

http://k2s.cc/file/97795bf54a8ac/M-a-c-b-e-t-h.2015.1080p.BluRay.X264-AMIABLE.part1.rar
http://k2s.cc/file/dfe9d1d17700a/M-a-c-b-e-t-h.2015.1080p.BluRay.X264-AMIABLE.part2.rar
http://k2s.cc/file/1bbd4b86810bd/M-a-c-b-e-t-h.2015.1080p.BluRay.X264-AMIABLE.part3.rar
http://k2s.cc/file/f8305cec2ba3f/M-a-c-b-e-t-h.2015.1080p.BluRay.X264-AMIABLE.part4.rar
http://k2s.cc/file/a5dbf1dfa1a6b/M-a-c-b-e-t-h.2015.1080p.BluRay.X264-AMIABLE.part5.rar
http://k2s.cc/file/7d18dd006d8f9/M-a-c-b-e-t-h.2015.1080p.BluRay.X264-AMIABLE.part6.rar
http://k2s.cc/file/4c32be3302704/M-a-c-b-e-t-h.2015.1080p.BluRay.X264-AMIABLE.part7.rar
http://k2s.cc/file/8646c6314f040/M-a-c-b-e-t-h.2015.1080p.BluRay.X264-AMIABLE.part8.rar

http://nitroflare.com/view/82EDB48080FFE17/M-a-c-b-e-t-h.2015.1080p.BluRay.X264-AMIABLE.part1.rar
http://nitroflare.com/view/7FF6A5403FA9D03/M-a-c-b-e-t-h.2015.1080p.BluRay.X264-AMIABLE.part2.rar
http://nitroflare.com/view/80EE7840EDECBA8/M-a-c-b-e-t-h.2015.1080p.BluRay.X264-AMIABLE.part3.rar
http://nitroflare.com/view/B491FD1C880B927/M-a-c-b-e-t-h.2015.1080p.BluRay.X264-AMIABLE.part4.rar
http://nitroflare.com/view/0DBBAAEF2EA5166/M-a-c-b-e-t-h.2015.1080p.BluRay.X264-AMIABLE.part5.rar
http://nitroflare.com/view/32B025EDF03FB87/M-a-c-b-e-t-h.2015.1080p.BluRay.X264-AMIABLE.part6.rar
http://nitroflare.com/view/ECE8C5218B6465A/M-a-c-b-e-t-h.2015.1080p.BluRay.X264-AMIABLE.part7.rar
http://nitroflare.com/view/BCEBEEC93158D55/M-a-c-b-e-t-h.2015.1080p.BluRay.X264-AMIABLE.part8.rar
  • *
  • zahvalnica: 23

  • Location: Ice Rock
  • Date Registerd:02 November 2010, 13:18:29
  • Posts: 2512
  • Topics: 1342
  • Activity/Aktivnost
    0%
  • OS:
    Windows NT 6.3 Windows NT 6.3
  • Browser:
    Firefox 39.0 Firefox 39.0
  • Email
Logged
Skoci na stranu: 1    Idi na vrh strane
Send this topic    Print
 
Skoci na:  

Powered by SMF 1.1.10 | SMF © 2006-2009, Simple Machines LLC
Page created in 3.986 seconds with 24 queries.

Google visited last this page 07 August 2017, 18:22:54
Theme created by Logo Off