Hello
  Home Help Login Register DMCA Rules  
19 October 2017, 04:02:51
 

Rapidshare Search
Skoci na stranu: 1    Idi na dno strane
Send this topic    Print
Author Topic: Need for Speed (2014)  (Read 5 times)
0 Members and 1 Guest are viewing this topic.
« on: 13 October 2017, 16:04:11 »



Original title: Need For Speed
Need for Speed - The Movie
Year 2014
Length: 130 min.
Country: United States
Director: Scott Waugh
Code:
http://www.imdb.com/title/tt2369135
George Gatins, John Gatins, George Nolfi
Music: Nathan Furst
Photography: Shane Hurlbut
Cast: Aaron Paul, Dominic Cooper, Imogen Poots, Michael Keaton, Scott Mescudi, Dakota Johnson, Rami Malek, Nick Chinlund, Ramon Rodriguez, Kid Cudi, Han Soto, Carmela Zumbado, Harrison Gilbertson
Studio: Electronic Arts / DreamWorks SKG / Reliance Entertainment / Bandito Brothers
Genre: Action | Cars / Cars. Revenge. Videogame. 3D
SYNOPSIS: It tells the story of a clandestine racing driver who owns his own garage to modify his cars and make them faster. However, he is sent to prison when his best friend is killed in one of these competitions, and will seek revenge when he is released. Adaptation to the cinema of the saga of videojuegos homonima.
Code:
https://www.youtube.com/watch?v=ThdX4ySLfmc

Quote
General
Complete name                            : Need for Speed (2014) 3D H-SBS 1080p BDRip Dual.mkv
Format                                   : Matroska
Format version                           : Version 4 / Version 2
File size                                : 13.6 GiB
Duration                                 : 2h 10mn
Overall bit rate                         : 14.9 Mbps
Encoded date                             : UTC 2014-07-19 21:08:06
Writing application                      : mkvmerge v6.8.0 ('Theme for Great Cities') 64bit built on Mar  2 2014 21:34:26
Writing library                          : libebml v1.3.0 + libmatroska v1.4.1
Video
ID                                       : 1
Format                                   : AVC
Format/Info                              : Advanced Video Codec
Format profile                           : High@L4.1
Format settings, CABAC                   : Yes
Format settings, ReFrames                : 4 frames
Codec ID                                 : V_MPEG4/ISO/AVC
Duration                                 : 2h 10mn
Bit rate                                 : 11.8 Mbps
Nominal bit rate                         : 12.5 Mbps
Width                                    : 1 920 pixels
Height                                   : 1 080 pixels
Display aspect ratio                     : 16:9
Frame rate mode                          : Constant
Frame rate                               : 23.976 fps
Color space                              : YUV
Chroma subsampling                       : 4:2:0
Bit depth                                : 8 bits
Scan type                                : Progressive
Bits/(Pixel*Frame)                       : 0.237
Stream size                              : 10.8 GiB (79%)
Writing library                          : x264 core 142 r2431 ac76440
Language                                 : English
Default                                  : Yes
Forced                                   : No
Color primaries                          : BT.709
Transfer characteristics                 : BT.709
Matrix coefficients                      : BT.709
Audio #1
ID                                       : 2
Format                                   : AC-3
Format/Info                              : Audio Coding 3
Mode extension                           : CM (complete main)
Format settings, Endianness              : Big
Codec ID                                 : A_AC3
Duration                                 : 2h 10mn
Bit rate mode                            : Constant
Bit rate                                 : 640 Kbps
Channel(s)                               : 6 channels
Channel positions                        : Front: L C R, Side: L R, LFE
Sampling rate                            : 48.0 KHz
Bit depth                                : 16 bits
Compression mode                         : Lossy
Delay relative to video                  : -83ms
Stream size                              : 599 MiB (4%)
Title                                    : AC3 5.1
Language                                 : Spanish
Default                                  : Yes
Forced                                   : No
Audio #2
ID                                       : 3
Format                                   : AC-3
Format/Info                              : Audio Coding 3
Mode extension                           : CM (complete main)
Format settings, Endianness              : Big
Codec ID                                 : A_AC3
Duration                                 : 2h 10mn
Bit rate mode                            : Constant
Bit rate                                 : 640 Kbps
Channel(s)                               : 6 channels
Channel positions                        : Front: L C R, Side: L R, LFE
Sampling rate                            : 48.0 KHz
Bit depth                                : 16 bits
Compression mode                         : Lossy
Delay relative to video                  : -83ms
Stream size                              : 599 MiB (4%)
Title                                    : AC3 5.1
Language                                 : English
Default                                  : No
Forced                                   : No
Audio #3
ID: 4
Format: DTS
Format/Info: Digital Theater Systems
Mode: 16
Format settings, Endianness: Big
Codec ID: A_DTS
Duration: 2h 10mn
Bit rate mode: Constant
Bit rate: 1 509 Kbps
Channel(s): 6 channels
Channel positions: Front: L C R, Side: L R, LFE
Sampling rate: 48.0 KHz
Bit depth: 24 bits
Compression mode: Lossy
Stream size: 1.38 GiB (10%)
Title: DTS 5.1
Language: English
Default: No
Forced: No
Text #1
ID: 5
Format: UTF-8
Codec ID: S_TEXT/UTF8
Codec ID/Info: UTF-8 Plain Text
Language: Spanish
Default: No
Forced: No
Text #2
ID: 6
Format: UTF-8
Codec ID: S_TEXT/UTF8
Codec ID/Info UTF-8 Plain Text
Language: Spanish
Default: Yes
Forced: No






Buy Premium Account To Get High Speed Download
Code:
http://uploaded.net/file/mhz6fzcj/msp283efs.part01.rar
http://uploaded.net/file/stprzw7h/msp283efs.part02.rar
http://uploaded.net/file/313w6u19/msp283efs.part03.rar
http://uploaded.net/file/r9yiyheb/msp283efs.part04.rar
http://uploaded.net/file/m0b8sh79/msp283efs.part05.rar
http://uploaded.net/file/8dum8gdr/msp283efs.part06.rar
http://uploaded.net/file/irfyz8eo/msp283efs.part07.rar
http://uploaded.net/file/th39h709/msp283efs.part08.rar
http://uploaded.net/file/2rky14ed/msp283efs.part09.rar
http://uploaded.net/file/h8csx3mv/msp283efs.part10.rar
http://uploaded.net/file/zqumo9s5/msp283efs.part11.rar
http://uploaded.net/file/bnsxn4q5/msp283efs.part12.rar
http://uploaded.net/file/hlsw6ljq/msp283efs.part13.rar
http://uploaded.net/file/6m27c3vz/msp283efs.part14.rar
Code:
http://nitroflare.com/view/C703E7B861DFBCA/msp283efs.part01.rar
http://nitroflare.com/view/C9A87D647369D2F/msp283efs.part02.rar
http://nitroflare.com/view/96D515D5E021F4E/msp283efs.part03.rar
http://nitroflare.com/view/144482734412F80/msp283efs.part04.rar
http://nitroflare.com/view/285BAC9E0EAE3EF/msp283efs.part05.rar
http://nitroflare.com/view/89E98656D5080D5/msp283efs.part06.rar
http://nitroflare.com/view/581D9D9A63258D4/msp283efs.part07.rar
http://nitroflare.com/view/6ACCCB3D75DB8DD/msp283efs.part08.rar
http://nitroflare.com/view/F0B6113CF59CCBE/msp283efs.part09.rar
http://nitroflare.com/view/15A35BA9AD6CDC6/msp283efs.part10.rar
http://nitroflare.com/view/37EB7487AE71942/msp283efs.part11.rar
http://nitroflare.com/view/A0224677FBAA17B/msp283efs.part12.rar
http://nitroflare.com/view/048D930864411FD/msp283efs.part13.rar
http://nitroflare.com/view/46AB521B91F0654/msp283efs.part14.rar
Code:
https://rapidgator.net/file/2b061134db43aef8d71ece7b3be3c229/msp283efs.part01.rar.html
https://rapidgator.net/file/535c26bd8b2e6b0c312697bc0a08f9eb/msp283efs.part02.rar.html
https://rapidgator.net/file/3dcdc787e4f8291136267b854b06fc19/msp283efs.part03.rar.html
https://rapidgator.net/file/0a983277610ff451a502f96a4379c694/msp283efs.part04.rar.html
https://rapidgator.net/file/be9888201764c72361d655fe531849fe/msp283efs.part05.rar.html
https://rapidgator.net/file/bce2ac30022adb8c961db21f393c94e0/msp283efs.part06.rar.html
https://rapidgator.net/file/c891410359243348b61dc7127c7a754a/msp283efs.part07.rar.html
https://rapidgator.net/file/0960e3dbbedb6e6c0758ccdbba114738/msp283efs.part08.rar.html
https://rapidgator.net/file/96c97834e5fe112ee254873587f039d3/msp283efs.part09.rar.html
https://rapidgator.net/file/ff1bb883a29ebc17850c9013c5934fad/msp283efs.part10.rar.html
https://rapidgator.net/file/e974ff34fa478a9c117c917dd33b71d3/msp283efs.part11.rar.html
https://rapidgator.net/file/0d3b2cdd18e51618d67a72e86b6486e1/msp283efs.part12.rar.html
https://rapidgator.net/file/c3fa2032d5a77e7bfbeb0133c107f4d5/msp283efs.part13.rar.html
https://rapidgator.net/file/41ea84eda7f3f811560680bdf351ec73/msp283efs.part14.rar.html
  • *
  • zahvalnica: 0

  • Date Registerd:30 June 2012, 16:08:58
  • Posts: 403
  • Topics: 398
  • Activity/Aktivnost
    100%
  • OS:
    Windows NT 6.3 Windows NT 6.3
  • Browser:
    Firefox 55.0 Firefox 55.0
  • Email
Logged
Skoci na stranu: 1    Idi na vrh strane
Send this topic    Print
 
Skoci na:  

Powered by SMF 1.1.10 | SMF © 2006-2009, Simple Machines LLC
Page created in 0.232 seconds with 25 queries.

Google visited last this page 15 October 2017, 00:19:11
Theme created by Logo Off